Последние Новости
Для экономии внешнего трафика рекомендуем установить IP-фильтр (блокирует внешние IP-адреса): http://tracker.name/ipSMG.exe
Данный файл проверен на вирусы, результаты проверки на VirusTotal: https://www.virustotal.com/

Уважаемые пользователи, на нашем трекере больше нет рейтинга, на это есть следующие причины:
1. Рейтинг легко накрутить чем многие и занимались.
2. Люди загружающие много интересных раздач (например web-ripы новых сериалов) находятся в проигрышном положении в отношении людей, загрузивших один большой BDRip.

Если Вы являетесь обладателем исключительных прав на какой-либо материал, ссылка на который находится на данном сайте, и не желаете, чтобы эта информация была распространена без Вашего согласия, просим писать на e-mail: supp2tracker@gmail.com

Детали торрентов
Имя Реальные пацаны / Сезон: 4 Серии: 13 из ?? (Жанна Кадникова) [2012, Комедия, драма, молодёжный сериал, WEBRip]
Торрент Чтобы скачать торрент Реальные пацаны / Сезон: 4 Серии: 13 из ?? (Жанна Кадникова) [2012, Комедия, драма, молодёжный сериал, WEBRip] вы должны зайти на наш торрент-трекер как зарегистрированный пользователь.
Magnet Link magnet
Info Hash 36ce70975a650fabe4261beb09a618c97dc34cab
Поблагодарили
Изображение
Описание Сообщение    
ivandubskoj


Стаж: 1 год 11 месяцев
Сообщений: 505
Откуда: Самара

16-Сен-12 03:36 (4 часа назад, ред. 16-Сен-12 04:59) [Цитировать]
Реальные пацаны

Год выпуска: 2012
Производство: Россия, Гуд Стори Медиа
Жанр: Комедия, драма, молодёжный сериал
Продолжительность: 00:22:37
Режиссёр: Жанна Кадникова

В ролях: Николай Наумов, Зоя Бербер, Антон Богданов, Владимир Селиванов (III), Станислав Тляшев, Мария Скорницкая, Валентина Мазунина, Марина Федункив, Армен Бежанян, Игорь Ознобихин, Алексей Базанов, Анастасия Плоскова, Олег Верещагин, Сергей Ершов, Татьяна Ронзина, Любовь Рудометова, Юлия Гришнина, Михаил Чуднов, Дмитрий Белоцерковский, Дмитрий Наумов (II), Юрий Богомолов, Василий Бичев, Анна Семенович, Аскольд Запашный, Эдгард Запашный

Описание: В новом сезоне Реальных пацанов, наш ждет еще больше глупых приколов Коляна и его друзей. Так же они попробуют открыть свой собственный ресторан, но у них все сложится как всегда. Премьера! Старт нового сезона удачно совпал с открытием кафе , в котором заправляют пацаны. Бизнес Коляну, Вовану и Антохе подарил Иваныч за то, что они разгромили заведение, устроив в нем драку. Обошлось без жертв, но это пока кафе не заработало на полную мощность.



Качество: WEBRip
Формат: AVI
Видео кодек: XviD
Аудио кодек: MP3
Видео: 640x480 (4:3), 1766 Кбит/с, 25 Кадр/с
Аудио: 48000 Гц, 128 Кбит/с, 2 канала (Стерео)

General
Complete name : realnye.pacany.13(83).seriya.XviD.2012.WEBRip.avi
Format : AVI
Format/Info : Audio Video Interleave
File size : 308 MiB
Duration : 22mn 37s
Overall bit rate : 1 904 Kbps
Writing library : VirtualDub build 34703/release

Video
ID : 0
Format : MPEG-4 Visual
Format profile : Advanced Simple@L5
Format settings, BVOP : 2
Format settings, QPel : No
Format settings, GMC : No warppoints
Format settings, Matrix : Default (H.263)
Muxing mode : Packed bitstream
Codec ID : XVID
Codec ID/Hint : XviD
Duration : 22mn 37s
Bit rate : 1 766 Kbps
Width : 640 pixels
Height : 480 pixels
Display aspect ratio : 4:3
Frame rate : 25.000 fps
Color space : YUV
Chroma subsampling : 4:2:0
Bit depth : 8 bits
Scan type : Progressive
Compression mode : Lossy
Bits/(Pixel*Frame) : 0.230
Stream size : 286 MiB (93%)
Writing library : XviD 58

Audio
ID : 1
Format : MPEG Audio
Format version : Version 1
Format profile : Layer 3
Mode : Joint stereo
Mode extension : MS Stereo
Codec ID : 55
Codec ID/Hint : MP3
Duration : 22mn 37s
Bit rate mode : Constant
Bit rate : 128 Kbps
Channel(s) : 2 channels
Sampling rate : 44.1 KHz
Compression mode : Lossy
Stream size : 20.7 MiB (7%)
Alignment : Split accross interleaves
Interleave, duration : 40 ms (1.00 video frame)
Interleave, preload duration : 501 ms
Скриншоты
Категория Реальные пацаны
Размер 308,1 MB
Показать/Скрыть файлы
1 file
Добавлен 16/09/2012 09:07:38
Аплоадер ingenermkts
Скачали 2542 раз
пиры сиды: 0, личеры: 0 = 0 пиры
Если видите кнопку, можете попросить перезалить торрент
Похожие файлы



skateboard 16/09/2012 11.47.27
Ништяк )Бедный Колянsmile1.gif
.
KulzhanovaValentina 16/09/2012 12.13.59
Лерка зря так,Колю жалко.sad.gif
.
user_vadya 16/09/2012 12.30.12
а когда 14 будет????интересно что будет дальше.
.
Nikone777 16/09/2012 19.39.55
завтро 14 серия будет ???
.