Последние Новости
Для экономии внешнего трафика рекомендуем установить IP-фильтр (блокирует внешние IP-адреса): http://tracker.name/ipSMG.exe
Данный файл проверен на вирусы, результаты проверки на VirusTotal: https://www.virustotal.com/

Уважаемые пользователи, на нашем трекере больше нет рейтинга, на это есть следующие причины:
1. Рейтинг легко накрутить чем многие и занимались.
2. Люди загружающие много интересных раздач (например web-ripы новых сериалов) находятся в проигрышном положении в отношении людей, загрузивших один большой BDRip.

Если Вы являетесь обладателем исключительных прав на какой-либо материал, ссылка на который находится на данном сайте, и не желаете, чтобы эта информация была распространена без Вашего согласия, просим писать на e-mail: supp2tracker@gmail.com

Детали торрентов
Имя Побег из Шоушенка / The Shawshank Redemption (Драма, криминал,экранизация.1994) BDRip-AVC | 60 fps VO Евгений Гаевский
Торрент Чтобы скачать торрент Побег из Шоушенка / The Shawshank Redemption (Драма, криминал,экранизация.1994) BDRip-AVC | 60 fps VO Евгений Гаевский вы должны зайти на наш торрент-трекер как зарегистрированный пользователь.
Magnet Link magnet
Info Hash 52446e31c61ae9209499ac6d49906efed26d215e
Поблагодарили
Изображение
Описание
Побег из Шоушенка / The Shawshank Redemption


Название: Побег из Шоушенка
Оригинальное название: The Shawshank Redemption
Год выпуска: 1994
Страна: США
Жанр: драма, криминал
Продолжительность: 02:22:33
Перевод: Любительский одноголосый-Евгений Гаевский
Режиссер: Фрэнк Дарабонт / Frank Darabont
В ролях: Тим Роббинс (Andy Dufresne), Морган Фриман (Ellis Boyd «Red» Redding), Боб Гантон (Warden Norton), Уильям Сэдлер (Heywood), Клэнси Браун (Captain Hadley), Джил Беллоуз (Tommy), Марк Ролстон (Bogs Diamond), Джеймс Уитмор (Brooks Hatlen), Джеффри ДеМанн (1946 D.A.), Ларри Бранденбург (Skeet), Нил Джунтоли (Jigger), Брайан Либби (Floyd)

Описание:
Успешный банкир Энди Дюфрейн обвинен в убийстве собственной жены и ее любовника. Оказавшись в тюрьме под названием Шоушенк, он сталкивается с жестокостью и беззаконием, царящими по обе стороны решетки. Каждый, кто попадает в эти стены, становится их рабом до конца жизни. Но Энди, вооруженный живым умом и доброй душой, отказывается мириться с приговором судьбы и начинает разрабатывать невероятно дерзкий план своего освобождения.


Качество: BDRip-AVC / 60fps
Формат: MKV
Видео кодек: AVC
Аудио кодек: DTS
Видео: AVC, 1024x576 (16:9), 3518 kbps, 59,940 fps, 0,100 bpp
Аудио: Русский / DTS / 5.1 / 48 kHz / 2181 kbps / 16 bit-Е.Гаевский

Общее
Уникальный идентификатор                 : 236429099519280140041021340274765149461 (0xB1DE96977A56E320B26C6F54A74D3515)
Полное имя                               : Побег из Шоушенка.mkv
Формат                                   : Matroska
Версия формата                           : Version 4 / Version 2
Размер файла                             : 5,68 Гбайт
Продолжительность                        : 2 ч. 22 м.
Общий поток                              : 5703 Кбит/сек
Дата кодирования                         : UTC 2018-07-24 03:36:35
Программа кодирования                    : mkvmerge v17.0.0 ('Be Ur Friend') 64-bit
Библиотека кодирования                   : libebml v1.3.5 + libmatroska v1.4.8

Видео
Идентификатор                            : 1
Формат                                   : AVC
Формат/Информация                        : Advanced Video Codec
Профиль формата                          : High@L4.1
Настройки формата                        : CABAC / 9 Ref Frames
Параметр CABAC формата                   : Да
Параметр RefFrames формата               : 9 кадров
Идентификатор кодека                     : V_MPEG4/ISO/AVC
Продолжительность                        : 2 ч. 22 м.
Битрейт                                  : 3518 Кбит/сек
Ширина                                   : 1024 пикселя
Высота                                   : 576 пикселей
Соотношение сторон                       : 16:9
Режим частоты кадров                     : Постоянный
Частота кадров                           : 59,940 (60000/1001) кадров/сек
Цветовое пространство                    : YUV
Субдискретизация насыщенности            : 4:2:0
Битовая глубина                          : 8 бит
Тип развёртки                            : Прогрессивная
Бит/(Пиксели*Кадры)                      : 0.100
Размер потока                            : 3,50 Гбайт (62%)
Библиотека кодирования                   : x264 core 146 r2538 121396c
Настройки программы                      : cabac=1 / ref=9 / deblock=1:0:0 / analyse=0x3:0x113 / me=umh / subme=11 / psy=1 / psy_rd=0.00:0.00 / mixed_ref=1 / me_range=42 / chroma_me=1 / trellis=2 / 8x8dct=1 / cqm=0 / deadzone=21,11 / fast_pskip=1 / chroma_qp_offset=0 / threads=12 / lookahead_threads=1 / sliced_threads=0 / nr=0 / decimate=1 / interlaced=0 / bluray_compat=0 / constrained_intra=0 / bframes=16 / b_pyramid=2 / b_adapt=1 / b_bias=0 / direct=1 / weightb=1 / open_gop=0 / weightp=2 / keyint=250 / keyint_min=25 / scenecut=40 / intra_refresh=0 / rc=2pass / mbtree=0 / bitrate=3518 / ratetol=1.0 / qcomp=0.60 / qpmin=0 / qpmax=69 / qpstep=4 / cplxblur=20.0 / qblur=0.5 / ip_ratio=1.40 / pb_ratio=1.30 / aq=1:1.00
Язык                                     : English
Default                                  : Да
Forced                                   : Нет

Аудио
Идентификатор                            : 2
Формат                                   : DTS
Формат/Информация                        : Digital Theater Systems
Профиль формата                          : MA / Core
Идентификатор кодека                     : A_DTS
Продолжительность                        : 2 ч. 22 м.
Вид битрейта                             : Переменный / Постоянный
Битрейт                                  : 2181 Кбит/сек / 1509 Кбит/сек
Каналы                                   : 6 каналов
Расположение каналов                     : Front: L C R, Side: L R, LFE
Частота                                  : 48,0 КГц
Частота кадров                           : 93,750 кадра/сек (512 SPF)
Битовая глубина                          : 16 бит
Метод сжатия                             : Без потерь / Lossy
Размер потока                            : 2,17 Гбайт (38%)
Default                                  : Да
Forced                                   : Нет

Скриншоты
Категория Драма
Размер 5,7 GB
Показать/Скрыть файлы
1 file
Добавлен 24/07/2018 01:16:25
Аплоадер Evgesha
Скачали 22 раз
пиры сиды: 0, личеры: 0 = 0 пиры
Если видите кнопку, можете попросить перезалить торрент
Похожие файлы



Комментариев нет...