Последние Новости
Для экономии внешнего трафика рекомендуем установить IP-фильтр (блокирует внешние IP-адреса): http://tracker.name/ipSMG.exe
Данный файл проверен на вирусы, результаты проверки на VirusTotal: https://www.virustotal.com/

Уважаемые пользователи, на нашем трекере больше нет рейтинга, на это есть следующие причины:
1. Рейтинг легко накрутить чем многие и занимались.
2. Люди загружающие много интересных раздач (например web-ripы новых сериалов) находятся в проигрышном положении в отношении людей, загрузивших один большой BDRip.

Если Вы являетесь обладателем исключительных прав на какой-либо материал, ссылка на который находится на данном сайте, и не желаете, чтобы эта информация была распространена без Вашего согласия, просим писать на e-mail: supp2tracker@gmail.com

Детали торрентов
Имя Паранойя / Paranoia (Роберт Лукетич, триллер, драма, 2013) [BDRip-AVC, Профессиональный (многоголосый закадровый), Оригинал (Английский), Субтитры]
Торрент Чтобы скачать торрент Паранойя / Paranoia (Роберт Лукетич, триллер, драма, 2013) [BDRip-AVC, Профессиональный (многоголосый закадровый), Оригинал (Английский), Субтитры] вы должны зайти на наш торрент-трекер как зарегистрированный пользователь.
Magnet Link magnet
Info Hash 5f0bde0a0e402cd36b7c3c82de28a2be9f88fe0e
Поблагодарили
Изображение
Описание

«В войне двух королей, даже пешка может победить»


Год выпуска: 2013
Страна: США, Франция
Производство: Demarest Films, EMJAG Productions, Gaumont, IM Global, Kintop Pictures, Reliance Entertainment
Жанр: триллер, драма
Режиссёр: Роберт Лукетич


В ролях: Лиам Хемсворт, Гари Олдман, Эмбер Хёрд, Харрисон Форд, Лукас Тилл, Эмбет Дэвидц, Джулиан МакМэхон, Джош Холлоуэй, Ричард Дрейфусс, Анджела Сарафян

Перевод: Профессиональный (многоголосый закадровый)  Baibako, Оригинал (Английский)
Субтитры: Английские (SDH + SDH-Colored)

Описание: Адам Кэссиди — типичный «белый воротничок», пытающийся преуспеть на должности молодого специалиста в крупной телекоммуникационной корпорации. После одной весьма дорогостоящей ошибки он сталкивается лицом к лицу с безжалостным президентом компании, который соглашается не увольнять провинившегося при одном условии: Адам должен шпионить за старым наставником своего босса…




Качество: BDRip-AVC  (исх.Paranoia 2013 1080p BluRay AVC DTS HD MA 5 1 PublicHD)
Продолжительность: 01:46:06

Формат: MKV
Видео кодек: x.264
Аудио кодек: AC3

Видео: x.264, 1056x440 (2,40:1), 23,976 fps, 1445 Кbps, 0.130 bit/pixel
Аудио #1: 48 kHz, AC3 Dolby Digital, 3/2 (L,C,R,l,r) + LFE ch, 384.00 kbps - (Дубляж)
Аудио #2: 48 kHz, AC3 Dolby Digital, 3/2 (L,C,R,l,r) + LFE ch, 448.00 kbps - (Оригинал)

Премьера (мир): 15 августа 2013
Премьера (РФ): 15 августа 2013, «Централ Партнершип»

General
Unique ID                                : 176910759824156801353643993221931999658 (0x8517C5E2362794DCB8F2912C5E8821AA)
Complete name                            : Paranoja.2013.DUAL.BDRip.x264.-HELLYWOOD.mkv
Format                                   : Matroska
Format version                           : Version 4 / Version 2
File size                                : 1.69 GiB
Duration                                 : 1h 46mn
Overall bit rate                         : 2 276 Kbps
Movie name                               : HELLYWOOD - rip by potroks
Encoded date                             : UTC 2013-11-14 16:55:05
Writing application                      : mkvmerge v5.9.0 ('On The Loose') built on Dec 15 2012 16:39:58
Writing library                          : libebml v1.3.0 + libmatroska v1.4.0

Video
ID                                       : 1
Format                                   : AVC
Format/Info                              : Advanced Video Codec
Format profile                           : High@L4.1
Format settings, CABAC                   : Yes
Format settings, ReFrames                : 10 frames
Codec ID                                 : V_MPEG4/ISO/AVC
Duration                                 : 1h 46mn
Bit rate                                 : 1 445 Kbps
Width                                    : 1 056 pixels
Height                                   : 440 pixels
Display aspect ratio                     : 2.40:1
Frame rate mode                          : Constant
Frame rate                               : 23.976 fps
Color space                              : YUV
Chroma subsampling                       : 4:2:0
Bit depth                                : 8 bits
Scan type                                : Progressive
Bits/(Pixel*Frame)                       : 0.130
Stream size                              : 1.04 GiB (61%)
Title                                    : Paranoia
Writing library                          : x264 core 130 r2273 b3065e6
Encoding settings                        : cabac=1 / ref=10 / deblock=1:-2:-2 / analyse=0x3:0x133 / me=umh / subme=11 / psy=1 / psy_rd=1.08:0.04 / mixed_ref=1 / me_range=48 / chroma_me=1 / trellis=2 / 8x8dct=1 / cqm=0 / deadzone=21,11 / fast_pskip=0 / chroma_qp_offset=-3 / threads=9 / lookahead_threads=7 / sliced_threads=0 / nr=0 / decimate=0 / interlaced=0 / bluray_compat=0 / constrained_intra=0 / bframes=11 / b_pyramid=2 / b_adapt=2 / b_bias=0 / direct=3 / weightb=1 / open_gop=0 / weightp=2 / keyint=240 / keyint_min=23 / scenecut=40 / intra_refresh=0 / rc_lookahead=60 / rc=2pass / mbtree=0 / bitrate=1445 / ratetol=1.0 / qcomp=0.70 / qpmin=0 / qpmax=69 / qpstep=4 / cplxblur=20.0 / qblur=0.5 / vbv_maxrate=20000 / vbv_bufsize=20000 / nal_hrd=none / ip_ratio=1.35 / pb_ratio=1.25 / aq=1:0.80
Language                                 : English
Default                                  : Yes
Forced                                   : No

Audio #1
ID                                       : 2
Format                                   : AC-3
Format/Info                              : Audio Coding 3
Mode extension                           : CM (complete main)
Format settings, Endianness              : Big
Codec ID                                 : A_AC3
Duration                                 : 1h 46mn
Bit rate mode                            : Constant
Bit rate                                 : 384 Kbps
Channel count                            : 6 channels
Channel positions                        : Front: L C R, Side: L R, LFE
Sampling rate                            : 48.0 KHz
Bit depth                                : 16 bits
Compression mode                         : Lossy
Stream size                              : 291 MiB (17%)
Title                                    : MVO | DD 5.1 @ 384 kbps - Baibako
Language                                 : Russian
Default                                  : Yes
Forced                                   : Yes

Audio #2
ID                                       : 3
Format                                   : AC-3
Format/Info                              : Audio Coding 3
Mode extension                           : CM (complete main)
Format settings, Endianness              : Big
Codec ID                                 : A_AC3
Duration                                 : 1h 46mn
Bit rate mode                            : Constant
Bit rate                                 : 448 Kbps
Channel count                            : 6 channels
Channel positions                        : Front: L C R, Side: L R, LFE
Sampling rate                            : 48.0 KHz
Bit depth                                : 16 bits
Compression mode                         : Lossy
Stream size                              : 340 MiB (20%)
Title                                    : Original | DD 5.1 @ 448 kbps
Language                                 : English
Default                                  : No
Forced                                   : No

Text #1
ID                                       : 4
Format                                   : UTF-8
Codec ID                                 : S_TEXT/UTF8
Codec ID/Info                            : UTF-8 Plain Text
Title                                    : SDH
Language                                 : English
Default                                  : No
Forced                                   : No

Text #2
ID                                       : 5
Format                                   : UTF-8
Codec ID                                 : S_TEXT/UTF8
Codec ID/Info                            : UTF-8 Plain Text
Title                                    : SDH-Colored
Language                                 : English
Default                                  : No
Forced                                   : No

Menu
00:00:00.000                             : ensad.gif01)00:00:00:000
00:06:54.205                             : ensad.gif02)00:06:54:205
00:10:31.839                             : ensad.gif03)00:10:31:839
00:14:12.601                             : ensad.gif04)00:14:12:601
00:17:02.396                             : ensad.gif05)00:17:02:396
00:21:41.008                             : ensad.gif06)00:21:41:008
00:26:29.921                             : ensad.gif07)00:26:29:921
00:31:31.848                             : ensad.gif0cool1.gif00:31:31:848
00:36:47.580                             : ensad.gif09)00:36:47:580
00:39:37.500                             : ensad.gif10)00:39:37:500
00:46:08.932                             : ensad.gif11)00:46:08:932
00:49:15.327                             : ensad.gif12)00:49:15:327
00:54:37.899                             : ensad.gif13)00:54:37:899
00:57:30.238                             : ensad.gif14)00:57:30:238
00:59:16.511                             : ensad.gif15)00:59:16:511
01:04:02.547                             : ensad.gif16)01:04:02:547
01:06:58.431                             : ensad.gif17)01:06:58:431
01:10:14.960                             : ensad.gif1cool1.gif01:10:14:960
01:19:23.759                             : ensad.gif19)01:19:23:759
01:23:21.079                             : ensad.gif20)01:23:21:079
01:27:37.502                             : ensad.gif21)01:27:37:502
01:35:06.617                             : ensad.gif22)01:35:06:617
01:37:53.367                             : ensad.gif23)01:37:53:367
01:40:59.053                             : ensad.gif24)01:40:59:053
01:46:06.109                             : ensad.gif25)01:46:06:109
Скриншоты
Категория Новинки кинопроката (HD Video и DVD)
Размер 1,7 GB
Показать/Скрыть файлы
1 file
Добавлен 15/11/2013 09:06:42
Аплоадер LehaM
Скачали 12261 раз
пиры сиды: 0, личеры: 0 = 0 пиры
Если видите кнопку, можете попросить перезалить торрент
Похожие файлы



Комментариев нет...