Последние Новости
Для экономии внешнего трафика рекомендуем установить IP-фильтр (блокирует внешние IP-адреса): http://tracker.name/ipSMG.exe
Данный файл проверен на вирусы, результаты проверки на VirusTotal: https://www.virustotal.com/

Уважаемые пользователи, на нашем трекере больше нет рейтинга, на это есть следующие причины:
1. Рейтинг легко накрутить чем многие и занимались.
2. Люди загружающие много интересных раздач (например web-ripы новых сериалов) находятся в проигрышном положении в отношении людей, загрузивших один большой BDRip.

Если Вы являетесь обладателем исключительных прав на какой-либо материал, ссылка на который находится на данном сайте, и не желаете, чтобы эта информация была распространена без Вашего согласия, просим писать на e-mail: supp2tracker@gmail.com

Детали торрентов
Имя Паранойя / Paranoia (Роберт Лукетич, триллер, драма, 2013) [HDRip, Профессиональный (многоголосый, закадровый) [BaibaKo]]
Торрент Чтобы скачать торрент Паранойя / Paranoia (Роберт Лукетич, триллер, драма, 2013) [HDRip, Профессиональный (многоголосый, закадровый) [BaibaKo]] вы должны зайти на наш торрент-трекер как зарегистрированный пользователь.
Magnet Link magnet
Info Hash 909ac6758f2cbf93e867c64fb97f895abd952516
Поблагодарили
Изображение
Описание

«В войне двух королей, даже пешка может победить»


Год выпуска: 2013
Страна: США, Франция
Производство: Demarest Films, EMJAG Productions, Gaumont, IM Global, Kintop Pictures, Reliance Entertainment
Жанр: триллер, драма
Режиссёр: Роберт Лукетич


В ролях: Лиам Хемсворт, Гари Олдман, Эмбер Хёрд, Харрисон Форд, Лукас Тилл, Эмбет Дэвидц, Джулиан МакМэхон, Джош Холлоуэй, Ричард Дрейфусс, Анджела Сарафян

Перевод: Профессиональный (многоголосый закадровый)  Baibako,
Субтитры: нет

Описание: Адам Кэссиди — типичный «белый воротничок», пытающийся преуспеть на должности молодого специалиста в крупной телекоммуникационной корпорации. После одной весьма дорогостоящей ошибки он сталкивается лицом к лицу с безжалостным президентом компании, который соглашается не увольнять провинившегося при одном условии: Адам должен шпионить за старым наставником своего босса…




Качество: HDRip  
Продолжительность: 01:46:06

Формат: AVI
Видео кодек:  XviD
Аудио кодек: AC3

Видео: XviD, 1572 kb/s, 720x304, (2.35:1), 23.976 fps, 0.300 Bits/(Pixel*Frame)
Аудио #1: AC3, 384 kb/s, 6 ch, 48 KHz

Премьера (мир): 15 августа 2013
Премьера (РФ): 15 августа 2013, «Централ Партнершип»

Format                                   : AVI
Format/Info                              : Audio Video Interleave
File size                                : 1.46 GiB
Duration                                 : 1h 46mn
Overall bit rate                         : 1 965 Kbps
Writing application                      : VirtualDubMod 1.5.10.2 (build 2540/release)
Writing library                          : VirtualDubMod build 2540/release

Video
ID                                       : 0
Format                                   : MPEG-4 Visual
Format profile                           : Advanced Simple@L5
Format settings, BVOP                    : 2
Format settings, QPel                    : No
Format settings, GMC                     : No warppoints
Format settings, Matrix                  : Custom
Codec ID                                 : XVID
Codec ID/Hint                            : XviD
Duration                                 : 1h 46mn
Bit rate                                 : 1 572 Kbps
Width                                    : 720 pixels
Height                                   : 304 pixels
Display aspect ratio                     : 2.35:1
Frame rate                               : 23.976 fps
Color space                              : YUV
Chroma subsampling                       : 4:2:0
Bit depth                                : 8 bits
Scan type                                : Progressive
Compression mode                         : Lossy
Bits/(Pixel*Frame)                       : 0.300
Stream size                              : 1.16 GiB (80%)
Writing library                          : XviD 1.2.1 (UTC 2008-12-04)

Audio
ID                                       : 1
Format                                   : AC-3
Format/Info                              : Audio Coding 3
Mode extension                           : CM (complete main)
Format settings, Endianness              : Big
Codec ID                                 : 2000
Duration                                 : 1h 46mn
Bit rate mode                            : Constant
Bit rate                                 : 384 Kbps
Channel(s)                               : 6 channels
Channel positions                        : Front: L C R, Side: L R, LFE
Sampling rate                            : 48.0 KHz
Bit depth                                : 16 bits
Compression mode                         : Lossy
Stream size                              : 291 MiB (20%)
Alignment                                : Split accross interleaves
Interleave, duration                     : 42 ms (1.00 video frame)
Interleave, preload duration             : 500 ms
Скриншоты
Категория Новинки кинопроката (HD Video и DVD)
Размер 1,5 GB
Показать/Скрыть файлы
1 file
Добавлен 15/11/2013 09:22:37
Аплоадер LehaM
Скачали 3227 раз
пиры сиды: 0, личеры: 0 = 0 пиры
Если видите кнопку, можете попросить перезалить торрент
Похожие файлы



Комментариев нет...